Navigation
Movies
TV shows
Music
Games
Applications
Anime
Other

Promo

Full Movies

Verified torrent When We First Met 2018 WEBRip x264-FGT


    Seeders : 691      Leechers : 202


Note :

Please Update (Trackers Info) Before Downloading Torrents to See Updated Seeders And Leechers for Batter Download Speed.

Trackers List

Tracker NameLast CheckStatusSeedersLeechers
udp://9.rarbg.me:2710/announce3 months agosuccess691202
udp://9.rarbg.to:2710/announce3 months agosuccess691202
udp://tracker.leechers-paradise.org:6969/announce3 months agosuccess779
udp://eddie4.nl:6969/announce3 months agosuccess779
udp://tracker.zer0day.to:1337/announce3 months agosuccess686
http://tracker.opentrackr.org/announce3 months agosuccess655
udp://tracker.opentrackr.org:1337/announce3 months agosuccess655
udp://tracker.pirateparty.gr:6969/announce3 months agosuccess616
udp://tracker.coppersurfer.tk:6969/announce3 months agosuccess616
udp://p4p.arenabg.ch:1337/announce3 months agosuccess556
udp://public.popcorn-tracker.org:6969/announce3 months agosuccess533
udp://tracker.vanitycore.co:6969/announce3 months agosuccess513
udp://tracker.internetwarriors.net:1337/announce3 months agosuccess505
udp://tracker.mgtracker.org:2710/announce3 months agosuccess375
udp://ipv4.tracker.harry.lu:80/announce3 months agosuccess172
udp://tracker.x4w.co:6969/announce3 months agosuccess00
udp://asnet.pw:2710/announce3 months agosuccess00
http://tracker.trackerfix.com/announce3 months agosuccess00
http://bigfoot1942.sektori.org:6969/announce3 months agosuccess00
http://announce.torrentsmd.com:6969/announce3 months agosuccess00
udp://mgtracker.org:6969/announce3 months agosuccess00
udp://tracker.sktorrent.net:6969/announce3 months agosuccess00
http://tracker2.wasabii.com.tw:6969/announce3 months agosuccess00
udp://tracker.mg64.net:6881/announce3 months agosuccess00
udp://castradio.net:6969/announce3 months agosuccess00
udp://explodie.org:6969/announce3 months agosuccess00
udp://tracker.blackunicorn.xyz:6969/announce3 months agosuccess00
udp://tracker4.piratux.com:6969/announce3 months agosuccess00
udp://glotorrents.pw:6969/announce3 months agosuccess00
udp://tracker.trackerfix.com:80/announce3 months agosuccess00
udp://tracker.pomf.se:80/announce3 months agosuccess00




Torrent File Content (8 files)


When.We.First.Met.2018.WEBRip.x264-FGT
     RARBG.txt -
31 bytes

    Subs
          English-FORCED.srt -
868 bytes

          English.srt -
142.62 KB

          French.srt -
112.89 KB

          German.srt -
110.85 KB

          Italian.srt -
113.77 KB

          Spanish.srt -
115.2 KB

     When.We.First.Met.2018.WEBRip.x264-FGT.mp4 -
932.51 MB



Description



Movies : Comedy : WEBRip : English
Loading... (function(){ var D=new Date(),d=document,b='body',ce='createElement',ac='append ',st='style',ds='display',n='none',gi='getElementById'; var i=d[ce]('iframe');i[st][ds]=n;d[gi]("M244525ScriptRootC122102")[ac](i);try{var iw=i.contentWindow.document;iw.open();iw.writeln("");iw.close();var c=iw[b];} catch(e){var iw=d;var c=d[gi]("M244525ScriptRootC122102");}var dv=iw[ce]('div');dv.id="MG_ID";dv[st][ds]=n;dv.innerHTML=122102;c[ac](dv); var s=iw[ce]('script');s.async='async';s.defer='defer';s.charset='utf-8';s.src="//jsc.adskeeper.co.uk/d/e/demonoid.pw.122102.js?t="+D.getYear()+D.getMonth()+D.getDate()+D.getHours();c[ac](s);})();

SUMMARY:

Noah spends the perfect first night with Avery| the girl of his dreams| but gets relegated to the friend zone. He spends the next three years wondering what went
wrong - until he gets the unexpected chance to travel back in time and alter that night - and his fate - over and over again.

MEDIAINFO:

Video
ID : 1
Format : AVC
Format/Info : Advanced Video Codec
Format profile : [email protected]
Format settings : CABAC / 5 Ref Frames
Format settings, CABAC : Yes
Format settings, ReFrames : 5 frames
Codec ID : avc1
Codec ID/Info : Advanced Video Coding
Duration : 1 h 37 min
Bit rate : 1 100 kb/s
Width : 720 pixels
Height : 400 pixels
Display aspect ratio : 16:9
Frame rate mode : Constant
Frame rate : 23.976 (24000/1001) FPS
Color space : YUV
Chroma subsampling : 4:2:0
Bit depth : 8 bits
Scan type : Progressive
Bits/(Pixel*Frame) : 0.159
Stream size : 751 MiB (81%)
Title : When.We.First.Met.2018.WEBRip.x264-FGT
Writing library : x264 core 148 r2795M aaa9aa8
Encoding settings : cabac=1 / ref=5 / deblock=1:-1:-1 / yse=0x3:0x113 / me=umh / subme=9 / psy=1 / psy_rd=1.00:0.15 / mixed_ref=1 / me_range=16 / chroma_me=1 / trellis=2 / 8x8dct=1 / cqm=0 / deadzone=21,11 / fast_pskip=1 / chroma_qp_offset=-3 / threads=24 / lookahead_threads=2 / sliced_threads=0 / nr=0 / decimate=1 / interlaced=0 / bluray_compat=0 / constrained_intra=0 / bframes=3 / b_pyramid=2 / b_adapt=2 / b_bias=0 / direct=3 / weightb=1 / open_gop=0 / weightp=2 / keyint=250 / keyint_min=23 / scenecut=40 / intra_refresh=0 / rc_lookahead=50 / rc=abr / mbtree=1 / bitrate=1100 / ratetol=1.0 / qcomp=0.60 / qpmin=0 / qpmax=69 / qpstep=4 / ip_ratio=1.40 / aq=1:1.00

Audio
ID : 2
Format : AAC
Format/Info : Advanced Audio Codec
Format profile : LC
Codec ID : mp4a-40-2
Duration : 1 h 37 min
Duration_LastFrame : -11 ms
Bit rate mode : Constant
Bit rate : 256 kb/s
Channel(s) : 2 channels
Channel positions : Front: L R
Sampling rate : 48.0 kHz
Frame rate : 46.875 FPS (1024 SPF)
Compression mode : Lossy
Stream size : 178 MiB (19%)
Title : When.We.First.Met.2018.WEBRip.x264-FGT
Language : English
Default : Yes
Alternate group : 1

SCREENSHOTS:







Show Demonoid some love with BitCoin: 1DNoid2VRyfYn9T38Z1SZ5XncG7WMgCeUL How to get BitCoin?

Facebook Twitter Google Digg Reddit LinkedIn StumbleUpon Email

Related torrents

Torrent NameAddedSizeSeedLeechHealth
3 months ago - in Movies1.34 GB5714
3 months ago - in Movies1.34 GB95
3 months ago - in Movies1.34 GB176
3 months ago - in Movies2.2 GB645173
3 months ago - in Movies3.81 GB14287
3 months ago - in Movies2.2 GB6321



Comments (0 Comments)




Latest Searches