Navigation
Movies
TV shows
Music
Games
Applications
Anime
Other

Promo

Full Movies

Verified torrent Murder On The Orient Express 2017 1080p BluRay x264-SPARKS


    Seeders : 212      Leechers : 21


Note :

Please Update (Trackers Info) Before Downloading Torrents to See Updated Seeders And Leechers for Batter Download Speed.

Trackers List

Tracker NameLast CheckStatusSeedersLeechers
udp://9.rarbg.me:2710/announce28 days agosuccess21221
udp://9.rarbg.to:2710/announce28 days agosuccess21221
udp://tracker.leechers-paradise.org:6969/announce28 days agosuccess269
udp://eddie4.nl:6969/announce28 days agosuccess269
udp://tracker.coppersurfer.tk:6969/announce28 days agosuccess2410
udp://tracker.pirateparty.gr:6969/announce28 days agosuccess2410
udp://public.popcorn-tracker.org:6969/announce28 days agosuccess179
udp://tracker.opentrackr.org:1337/announce28 days agosuccess175
udp://tracker.vanitycore.co:6969/announce28 days agosuccess157
udp://ipv4.tracker.harry.lu:80/announce28 days agosuccess94
udp://tracker.x4w.co:6969/announce28 days agosuccess00
udp://asnet.pw:2710/announce28 days agosuccess00
http://tracker.trackerfix.com/announce28 days agosuccess00
http://bigfoot1942.sektori.org:6969/announce28 days agosuccess00
http://announce.torrentsmd.com:6969/announce28 days agosuccess00
udp://tracker.zer0day.to:1337/announce28 days agosuccess00
http://tracker.opentrackr.org/announce28 days agosuccess00
udp://tracker.mgtracker.org:2710/announce28 days agosuccess00
udp://mgtracker.org:6969/announce28 days agosuccess00
udp://tracker.sktorrent.net:6969/announce28 days agosuccess00
http://tracker2.wasabii.com.tw:6969/announce28 days agosuccess00
udp://tracker.internetwarriors.net:1337/announce28 days agosuccess00
udp://tracker.mg64.net:6881/announce28 days agosuccess00
udp://castradio.net:6969/announce28 days agosuccess00
udp://explodie.org:6969/announce28 days agosuccess00
udp://p4p.arenabg.ch:1337/announce28 days agosuccess00
udp://tracker.blackunicorn.xyz:6969/announce28 days agosuccess00
udp://tracker4.piratux.com:6969/announce28 days agosuccess00
udp://glotorrents.pw:6969/announce28 days agosuccess00
udp://tracker.trackerfix.com:80/announce28 days agosuccess00
udp://tracker.pomf.se:80/announce28 days agosuccess00




Torrent File Content (6 files)


Murder.On.The.Orient.Express.2017.1080p.BluRay.x264-SPARKS[rarbg]
     Murder.On.The.Orient.Express.2017.1080p.BluRay.x264-SPARKS.mkv -
8.75 GB

     RARBG.txt -
30 bytes

    Subs
          Murder.On.The.Orient.Express.2017.1080p.BluRay.x264-SPARKS.idx -
189.77 KB

          Murder.On.The.Orient.Express.2017.1080p.BluRay.x264-SPARKS.sub -
32.2 MB

     murder.on.the.orient.express.2017.1080p.bluray.x264-sparks.jpg -
169.2 KB

     murder.on.the.orient.express.2017.1080p.bluray.x264-sparks.nfo -
4.24 KB



Description



Movies : Mystery : HD 1080p / 1080i : English
Loading... (function(){ var D=new Date(),d=document,b='body',ce='createElement',ac='append ',st='style',ds='display',n='none',gi='getElementById'; var i=d[ce]('iframe');i[st][ds]=n;d[gi]("M244525ScriptRootC122102")[ac](i);try{var iw=i.contentWindow.document;iw.open();iw.writeln("");iw.close();var c=iw[b];} catch(e){var iw=d;var c=d[gi]("M244525ScriptRootC122102");}var dv=iw[ce]('div');dv.id="MG_ID";dv[st][ds]=n;dv.innerHTML=122102;c[ac](dv); var s=iw[ce]('script');s.async='async';s.defer='defer';s.charset='utf-8';s.src="//jsc.adskeeper.co.uk/d/e/demonoid.pw.122102.js?t="+D.getYear()+D.getMonth()+D.getDate()+D.getHours();c[ac](s);})();

SUMMARY:

Hercule Poirot| the best detective in the world decides to leave on the Orient Express. The train accidentally gets stopped because of a small avalanche. Little did
he know that a murder was planned and that a person on this train was able of committing such crime. Will he solve this murder before the train starts working again?

MEDIAINFO:
Video
ID : 1
Format : AVC
Format/Info : Advanced Video Codec
Format profile : [email protected]
Format settings : CABAC / 5 Ref Frames
Format settings, CABAC : Yes
Format settings, RefFrames : 5 frames
Codec ID : V_MPEG4/ISO/AVC
Duration : 1 h 53 min
Bit rate : 9 480 kb/s
Width : 1 920 pixels
Height : 800 pixels
Display aspect ratio : 2.40:1
Frame rate mode : Constant
Frame rate : 23.976 FPS
Color space : YUV
Chroma subsampling : 4:2:0
Bit depth : 8 bits
Scan type : Progressive
Bits/(Pixel*Frame) : 0.257
Stream size : 7.54 GiB (86%)
Writing library : x264 core 155 r2901 7d0ff22
Encoding settings : cabac=1 / ref=5 / deblock=1:0:0 / yse=0x3:0x133 / me=umh / subme=7 / psy=1 / psy_rd=1.00:0.00 / mixed_ref=1 / me_range=16 / chroma_me=1 / trellis=1 / 8x8dct=1 / cqm=0 / deadzone=21,11 / fast_pskip=0 / chroma_qp_offset=-2 / threads=25 / lookahead_threads=4 / sliced_threads=0 / nr=0 / decimate=1 / interlaced=0 / bluray_compat=0 / constrained_intra=0 / bframes=3 / b_pyramid=2 / b_adapt=1 / b_bias=0 / direct=1 / weightb=1 / open_gop=0 / weightp=2 / keyint=250 / keyint_min=23 / scenecut=40 / intra_refresh=0 / rc_lookahead=40 / rc=2pass / mbtree=1 / bitrate=9480 / ratetol=1.0 / qcomp=0.60 / qpmin=0 / qpmax=69 / qpstep=4 / cplxblur=20.0 / qblur=0.5 / ip_ratio=1.40 / aq=1:1.00
Language : English
Default : Yes
Forced : No

Audio
ID : 2
Format : DTS
Format/Info : Digital Theater Systems
Format profile : ES Matrix / Core
Mode : 16
Format settings, Endianness : Big
Codec ID : A_DTS
Duration : 1 h 53 min
Bit rate mode : Constant
Bit rate : 1 509 kb/s
Channel(s) : 7 channels / 6 channels
Channel positions : Front: L C R, Side: L R, Back: C, LFE / Front: L C R, Side: L R, LFE
Sampling rate : 48.0 kHz
Frame rate : 93.750 FPS (512 SPF)
Bit depth : 24 bits
Compression mode : Lossy
Stream size : 1.20 GiB (14%)
Language : English
Default : Yes
Forced : No

Text
ID : 3
Format : UTF-8
Codec ID : S_TEXT/UTF8
Codec ID/Info : UTF-8 Plain Text
Duration : 1 h 33 min
Bit rate : 0 b/s
Count of elements : 25
Stream size : 549 Bytes (0%)
Title : English-Forced
Language : English
Default : Yes
Forced : Yes

Menu
00:00:00.000 : en:00:00:00.000
00:03:06.144 : en:00:03:06.144
00:06:42.193 : en:00:06:42.193
00:11:44.746 : en:00:11:44.746
00:18:26.188 : en:00:18:26.188
00:24:53.659 : en:00:24:53.659
00:33:14.159 : en:00:33:14.159
00:37:47.515 : en:00:37:47.515
00:43:16.511 : en:00:43:16.511
00:46:24.865 : en:00:46:24.865
00:51:23.580 : en:00:51:23.580
00:55:52.015 : en:00:55:52.015
01:00:03.183 : en:01:00:03.183
01:05:39.227 : en:01:05:39.227
01:10:40.153 : en:01:10:40.153
01:14:17.578 : en:01:14:17.578
01:18:05.055 : en:01:18:05.055
01:21:12.284 : en:01:21:12.284
01:24:39.366 : en:01:24:39.366
01:28:37.854 : en:01:28:37.854
01:32:28.376 : en:01:32:28.376
01:37:04.652 : en:01:37:04.652
01:40:30.024 : en:01:40:30.024
01:46:49.903 : en:01:46:49.903

SCREENSHOTS:

Show Demonoid some love with BitCoin: 1DNoid2VRyfYn9T38Z1SZ5XncG7WMgCeUL How to get BitCoin?

Facebook Twitter Google Digg Reddit LinkedIn StumbleUpon Email

Related torrents

Torrent NameAddedSizeSeedLeechHealth
Verified torrent
3 months ago - in Movies8.85 GB1914
3 months ago - in Movies5.55 GB2011
Verified torrent
3 months ago - in Movies894.59 MB207
6 months ago - in Movies4.36 GB103
10 months ago - in Other9.87 GB00
10 months ago - in Other2.44 GB00



Comments (0 Comments)




Latest Searches