Navigation
Movies
TV shows
Music
Games
Applications
Anime
Other

Promo

Full Movies

Verified torrent Daddys Home 2 2017 1080p BluRay x264-BLOW


    Seeders : 820      Leechers : 766


Note :

Please Update (Trackers Info) Before Downloading Torrents to See Updated Seeders And Leechers for Batter Download Speed.

Trackers List

Tracker NameLast CheckStatusSeedersLeechers
udp://9.rarbg.me:2710/announce3 months agosuccess820766
udp://9.rarbg.to:2710/announce3 months agosuccess820766
udp://p4p.arenabg.ch:1337/announce3 months agosuccess21134
http://tracker.opentrackr.org/announce3 months agosuccess21134
udp://tracker.opentrackr.org:1337/announce3 months agosuccess21134
udp://tracker.pirateparty.gr:6969/announce3 months agosuccess20130
udp://tracker.coppersurfer.tk:6969/announce3 months agosuccess20130
udp://tracker.zer0day.to:1337/announce3 months agosuccess1988
udp://public.popcorn-tracker.org:6969/announce3 months agosuccess1886
udp://tracker.vanitycore.co:6969/announce3 months agosuccess17130
udp://tracker.internetwarriors.net:1337/announce3 months agosuccess17113
udp://mgtracker.org:6969/announce3 months agosuccess1091
udp://ipv4.tracker.harry.lu:80/announce3 months agosuccess93
udp://tracker.leechers-paradise.org:6969/announce3 months agosuccess00
udp://asnet.pw:2710/announce3 months agosuccess00
http://tracker.trackerfix.com/announce3 months agosuccess00
udp://tracker.mgtracker.org:2710/announce3 months agosuccess00
udp://tracker.sktorrent.net:6969/announce3 months agosuccess00
udp://tracker.x4w.co:6969/announce3 months agosuccess00
udp://tracker.mg64.net:6881/announce3 months agosuccess00
http://bigfoot1942.sektori.org:6969/announce3 months agosuccess00
udp://tracker.blackunicorn.xyz:6969/announce3 months agosuccess00
udp://tracker4.piratux.com:6969/announce3 months agosuccess00
udp://glotorrents.pw:6969/announce3 months agosuccess00
udp://tracker.trackerfix.com:80/announce3 months agosuccess00
udp://tracker.pomf.se:80/announce3 months agosuccess00
http://tracker2.wasabii.com.tw:6969/announce3 months agosuccess00
udp://eddie4.nl:6969/announce3 months agosuccess00
udp://explodie.org:6969/announce3 months agosuccess00
udp://castradio.net:6969/announce3 months agosuccess00
http://announce.torrentsmd.com:6969/announce3 months agosuccess00




Torrent File Content (6 files)


Daddys.Home.2.2017.1080p.BluRay.x264-BLOW[rarbg]
     RARBG.txt -
30 bytes

    Subs
          blow-daddys.home.2.2017.1080p.bluray.x264.idx -
531.17 KB

          blow-daddys.home.2.2017.1080p.bluray.x264.sub -
76.54 MB

     blow-daddys.home.2.2017.1080p.bluray.x264.jpg -
225.19 KB

     blow-daddys.home.2.2017.1080p.bluray.x264.mkv -
7.65 GB

     blow-daddys.home.2.2017.1080p.bluray.x264.nfo -
4.2 KB



Description



Movies : Comedy : HD 1080p / 1080i : English
Loading... (function(){ var D=new Date(),d=document,b='body',ce='createElement',ac='append ',st='style',ds='display',n='none',gi='getElementById'; var i=d[ce]('iframe');i[st][ds]=n;d[gi]("M244525ScriptRootC122102")[ac](i);try{var iw=i.contentWindow.document;iw.open();iw.writeln("");iw.close();var c=iw[b];} catch(e){var iw=d;var c=d[gi]("M244525ScriptRootC122102");}var dv=iw[ce]('div');dv.id="MG_ID";dv[st][ds]=n;dv.innerHTML=122102;c[ac](dv); var s=iw[ce]('script');s.async='async';s.defer='defer';s.charset='utf-8';s.src="//jsc.adskeeper.co.uk/d/e/demonoid.pw.122102.js?t="+D.getYear()+D.getMonth()+D.getDate()+D.getHours();c[ac](s);})();

SUMMARY:

Having finally gotten used to each other's existence| Brad and Dusty must now deal with their intrusive fathers during the holidays.

MEDIAINFO:

Video
ID : 1
Format : AVC
Format/Info : Advanced Video Codec
Format profile : [email protected]
Format settings : CABAC / 4 Ref Frames
Format settings, CABAC : Yes
Format settings, RefFrames : 4 frames
Codec ID : V_MPEG4/ISO/AVC
Duration : 1 h 39 min
Bit rate : 10.3 Mb/s
Width : 1 920 pixels
Height : 1 080 pixels
Display aspect ratio : 16:9
Frame rate mode : Constant
Frame rate : 23.976 (24000/1001) FPS
Color space : YUV
Chroma subsampling : 4:2:0
Bit depth : 8 bits
Scan type : Progressive
Bits/(Pixel*Frame) : 0.208
Stream size : 7.05 GiB (92%)
Writing library : x264 core 155 r2901 7d0ff22
Encoding settings : cabac=1 / ref=4 / deblock=1:0:0 / yse=0x3:0x113 / me=umh / subme=8 / psy=1 / psy_rd=1.00:0.00 / mixed_ref=1 / me_range=16 / chroma_me=1 / trellis=1 / 8x8dct=1 / cqm=0 / deadzone=21,11 / fast_pskip=1 / chroma_qp_offset=-2 / threads=24 / lookahead_threads=4 / sliced_threads=0 / nr=0 / decimate=1 / interlaced=0 / bluray_compat=0 / constrained_intra=0 / bframes=3 / b_pyramid=2 / b_adapt=1 / b_bias=0 / direct=3 / weightb=1 / open_gop=0 / weightp=2 / keyint=240 / keyint_min=24 / scenecut=40 / intra_refresh=0 / rc_lookahead=50 / rc=2pass / mbtree=1 / bitrate=10343 / ratetol=1.0 / qcomp=0.60 / qpmin=0 / qpmax=69 / qpstep=4 / cplxblur=20.0 / qblur=0.5 / ip_ratio=1.40 / aq=1:1.00
Language : English
Default : Yes
Forced : No

Audio
ID : 2
Format : AC-3
Format/Info : Audio Coding 3
Format settings, Endianness : Big
Codec ID : A_AC3
Duration : 1 h 39 min
Bit rate mode : Constant
Bit rate : 640 kb/s
Channel(s) : 6 channels
Channel positions : Front: L C R, Side: L R, LFE
Sampling rate : 48.0 kHz
Frame rate : 31.250 FPS (1536 SPF)
Bit depth : 16 bits
Compression mode : Lossy
Stream size : 456 MiB (6%)
Language : English
Service kind : Complete Main
Default : Yes
Forced : No

Text #1
ID : 3
Format : UTF-8
Codec ID : S_TEXT/UTF8
Codec ID/Info : UTF-8 Plain Text
Title : English forced
Language : English
Default : No
Forced : Yes

Text #2
ID : 4
Format : UTF-8
Codec ID : S_TEXT/UTF8
Codec ID/Info : UTF-8 Plain Text
Title : English regular
Language : English
Default : No
Forced : No

Menu
00:00:00.000 : en:00:00:00.000
00:08:08.530 : en:00:08:08.530
00:16:08.092 : en:00:16:08.092
00:21:44.053 : en:00:21:44.053
00:27:40.158 : en:00:27:40.158
00:32:47.424 : en:00:32:47.424
00:40:49.030 : en:00:40:49.030
00:47:57.166 : en:00:47:57.166
00:52:27.895 : en:00:52:27.895
01:00:08.730 : en:01:00:08.730
01:08:37.363 : en:01:08:37.363
01:15:23.102 : en:01:15:23.102
01:26:24.846 : en:01:26:24.846
01:33:34.943 : en:01:33:34.943

SCREENSHOTS:

Show Demonoid some love with BitCoin: 1DNoid2VRyfYn9T38Z1SZ5XncG7WMgCeUL How to get BitCoin?

Facebook Twitter Google Digg Reddit LinkedIn StumbleUpon Email

Related torrents

Torrent NameAddedSizeSeedLeechHealth
3 months ago - in Movies7.65 GB198
3 months ago - in Movies4.37 GB465
5 months ago - in Other1.61 GB00
1 Year+ - in Movies7.65 GB00
1 Year+ - in Movies7.73 GB00
3 months ago - in Movies1.97 GB1710



Comments (0 Comments)




Latest Searches